Pokémon Türkiye Forumları | Pokémon ve Anime Paylaşım Platformu

Tam Versiyon: 03 - Spell of the Unown: Entei | Türkçe Dublaj | DVDRip | MKV
Şu anda arşiv modunu görüntülemektesiniz. Tam versiyonu görüntülemek için buraya tıklayınız.



[Resim: 91Ew54jXjYL._SL1500__zpsxbtrzucz.jpg]





[Resim: IMDB.png]
https://www.imdb.com/title/tt0235679/





[Resim: Bilgi.png]
480p




Kod:
General
Complete name               : Movie 03 - Spell of the Unown; Entei.mkv
Format                      : Matroska
Format version              : Version 2
File size                   : 530 MiB
Duration                    : 1h 10mn
Overall bit rate            : 1 051 Kbps
Encoded date                : UTC 2015-10-09 13:13:01
Writing application         : mkvmerge v3.3.0 ('Language') built on Mar 24 2010 14:59:24
Writing library             : libebml v0.8.0 + libmatroska v0.9.0

Video
ID                          : 1
Format                      : AVC
Format/Info                 : Advanced Video Codec
Format profile              : High@L3
Format settings, CABAC      : Yes
Format settings, ReFrames   : 4 frames
Codec ID                    : V_MPEG4/ISO/AVC
Duration                    : 1h 10mn
Width                       : 720 pixels
Height                      : 480 pixels
Display aspect ratio        : 16:9
Frame rate mode             : Constant
Frame rate                  : 25.000 fps
Color space                 : YUV
Chroma subsampling          : 4:2:0
Bit depth                   : 8 bits
Scan type                   : Progressive
Writing library             : x264 core 92 r1510 33d382a
Default                     : Yes
Forced                      : No

Audio
ID                          : 2
Format                      : AAC
Format/Info                 : Advanced Audio Codec
Format profile              : HE-AAC / LC
Codec ID                    : A_AAC
Duration                    : 1h 10mn
Channel(s)                  : 2 channels
Channel positions           : Front: L R
Sampling rate               : 48.0 KHz / 24.0 KHz
Compression mode            : Lossy
Default                     : Yes
Forced                      : No






[Resim: EkranGrntleri.png]
[Resim: ee1_zps9j6zopi4.jpg]
[Resim: ee2_zpsa6gdjoml.jpg]
[Resim: ee3_zpsyoxsiu76.jpg]
[Resim: ee4_zpsu9gid0sx.jpg]
[Resim: ee5_zpsd7tqkt8m.jpg]







[Resim: Bilgi.png]
720p




Kod:
General
Complete name               : Movie 03 - Spell of the Unown; Entei.mkv
Format                      : Matroska
Format version              : Version 2
File size                   : 1.34 GiB
Duration                    : 1h 10mn
Overall bit rate            : 2 718 Kbps
Encoded date                : UTC 2015-10-08 21:59:33
Writing application         : mkvmerge v3.3.0 ('Language') built on Mar 24 2010 14:59:24
Writing library             : libebml v0.8.0 + libmatroska v0.9.0

Video
ID                          : 1
Format                      : AVC
Format/Info                 : Advanced Video Codec
Format profile              : High@L3.1
Format settings, CABAC      : Yes
Format settings, ReFrames   : 4 frames
Codec ID                    : V_MPEG4/ISO/AVC
Duration                    : 1h 10mn
Bit rate                    : 2 472 Kbps
Width                       : 1 280 pixels
Height                      : 720 pixels
Display aspect ratio        : 16:9
Frame rate mode             : Constant
Frame rate                  : 25.000 fps
Color space                 : YUV
Chroma subsampling          : 4:2:0
Bit depth                   : 8 bits
Scan type                   : Progressive
Bits/(Pixel*Frame)          : 0.107
Stream size                 : 1.22 GiB (91%)
Writing library             : x264 core 92 r1510 33d382a
Default                     : Yes
Forced                      : No

Audio
ID                          : 2
Format                      : AC-3
Format/Info                 : Audio Coding 3
Mode extension              : CM (complete main)
Format settings, Endianness : Big
Codec ID                    : A_AC3
Duration                    : 1h 10mn
Bit rate mode               : Constant
Bit rate                    : 192 Kbps
Channel(s)                  : 2 channels
Channel positions           : Front: L R
Sampling rate               : 48.0 KHz
Compression mode            : Lossy
Stream size                 : 96.8 MiB (7%)
Default                     : Yes
Forced                      : No






[Resim: EkranGrntleri.png]
[Resim: e1_zpsezzfo4nz.jpg]
[Resim: e2_zpsghktfco3.jpg]
[Resim: e3_zps6qovufoc.jpg]
[Resim: e4_zpsbuhrjong.jpg]
[Resim: e5_zpshuwktp9o.jpg]





[Resim: download.png]
480p
M03.TR.480p.DVDRip.MKV.rar






720p
M03.TR.720p.DVDRip.MKV.rar





[Resim: onlineizle.png]
İndirmeden İzlemek İçin Tıklayın!






Sıkça Sorulan Sorular ve Cevapları !!!!




Soru: Turbobitten Nasıl İndirme Yaparım?
Cevap: Linke Tıklayıp Videolu Anlatımımızdan Faydalanabilirsiniz.
Soru: Neden Turbobit? Alternatif Link Eklenecek mi?
Cevap: Şuan Güvenebileceğimiz Kazanç Sağlayan Tek Upload Sitesi Konumundadır. İndirilmeyen Dosya Ömrü 45 Gündür. Daha Önce Sunduğumuz Tüm Alternatif Linkler İndirilmeyip Kırılmıştır.
Soru: Nasıl Hızlı İndirme Yapabilirim?
Cevap: Turbobitten Operatör Hattınızla veya Diğer Ödeme Yollarıyla Premium Satın Alarak Hızlı ve Sınırsız İndirme Yapabilirsiniz. Nasıl Premium Hesap Satın Alacağınız Turbobit Sitesinde Anlatılmıştır.
Soru: İndirdiğim Dosya Rar dan Çıkmıyor, Hata Veriyor?
Cevap: İndirme Yaparken Bağlantıda Sorunlar Olabilir. İndirdiğiniz Dosya Boyutunu Linkteki Dosya Boyutu İle Karşılaştırıp Dosya Boyutlarının Aynı Olup Olmadığından Emin Olunuz.
Soru: Altyazılar Gömülü Olarak Verilmiş. Altyazıları Ayrı Olarak Paylaşacak Mısınız?
Cevap: Hayır, Böyle Bir Şey Kesinlikle Söz Konusu Olamaz.
Soru: Torrent Linki Yok mu?
Cevap: Hayır, Torrent Linki Yapamayız, Çünkü Kimse Seed Etmez. Bölümleri İndiren Torrentten Çıkar Gider. Bazı Türk Torrent Sitelerinde Torrent Mevcuttur Ama Onlarda da Seed Bulamayacağınız İçin Hayal Kırıklığına Uğrayabilirsiniz.
Soru: Bazı Bölümlerde Ses Gelmiyor? Bölüm Açılmıyor?
Cevap: Kodek Paketinizi Güncelleyerek KM Player, VLC Player İle Sorunsuz İzleyebilirsiniz.
Soru: Yasal Uyarı Nedir? Neden 24 Saat Sonra Silmeliyim?
Cevap: Sitemiz, Hukuka, Yasalara, Telif Haklarına Saygılı Olmayı Amaç Edinmiştir. Sitemiz, 5651 Sayılı Yasada Tanımlanan “Yer Sağlayıcı” Olarak Hizmet Vermektedir. İlgili Yasaya Göre, Site Yönetiminin Hukuka Aykırı İçerikleri Kontrol Etme Yükümlülüğü Yoktur. Bu Sebeple, Sitemiz “Uyar ve Kaldır” Prensibini Benimsemiştir. Telif Hakkına Konu Olan Eserlerin Yasal Olmayan Bir Biçimde Paylaşıldığını ve Yasal Haklarının Çiğnendiğini Düşünen Hak Sahipleri, Mail Adresinden Bize Ulaşabilirler. Buraya Ulaşan Talep ve Şikayetler Yerinde Görüldüğü Takdirde İhlal Olduğu Düşünülen İçerikler Sitemizden Kaldırılacaktır.






[Resim: YasalUyar.png]




Bu sitede sunulan Pokémon bölümleri, mp3leri vb materyaller tanıtım amaçlıdır. 24 saat içinde kullanıcılar tarafından silinmelidir. Silinmeyen materyaller için sitemiz yetkilileri sorumlu tutulamaz. PokemonTurkiye.Com bir fan sitesidir ve resmi hiçbir bağı yoktur. Yapımcıların rahatsız olduğu içerik, şikayet dahilinde sitemizden kaldırılır.






Pokémon Türkiye Farkıyla


online olarak izleme seçeneği ekler misiniz?
(25-10-2015, 12:29 AM)4snoopy Adlı Kullanıcıdan Alıntı: [ -> ]online olarak izleme seçeneği ekler misiniz?

https://pokemonizle.net/pokemon-3-film-u...in-buyusu/

pokemonizle.net bu forumun sitesidir. Oradan rahatlıkla online izleyebilirsin filmleri ve bölümleri =T
Linkler günceldir.