Pokémon Türkiye Forumları | Pokémon ve Anime Paylaşım Platformu | Pokemon Go
11 - Giratina and the Sky Warrior | Türkçe Altyazı | DVDRip | MKV - Baskı Önizleme

+- Pokémon Türkiye Forumları | Pokémon ve Anime Paylaşım Platformu | Pokemon Go (http://pokemonturkiye.com/mybb)
+-- Forum: Pokémon İndir (Bu Bölüm Yönetime Aittir!) (http://pokemonturkiye.com/mybb/forum-pok%C3%A9mon-indir-bu-bolum-yonetime-aittir-6)
+--- Forum: Pokemon Filmleri (http://pokemonturkiye.com/mybb/forum-pokemon-filmleri-66)
+--- Konu Başlığı: 11 - Giratina and the Sky Warrior | Türkçe Altyazı | DVDRip | MKV (/konu-11-giratina-and-the-sky-warrior-turkce-altyazi-dvdrip-mkv-11750.html)



11 - Giratina and the Sky Warrior | Türkçe Altyazı | DVDRip | MKV - Mehmet © - 12-07-2014




pokemon_giratina_and_the_sky_warrior_dvd...75e774.jpg





IMDB.png
Linkleri görebilmek için, lütfen buraya tıklayarak kayıt olun.





Bilgi.png
480p

Kod:
General
Complete name               : Movie 11 - Giratina and the Sky Warrior.mkv
Format                      : Matroska
Format version              : Version 2
File size                   : 614 MiB
Duration                    : 1h 36mn
Overall bit rate            : 893 Kbps
Encoded date                : UTC 2015-10-08 15:58:52
Writing application         : mkvmerge v3.3.0 ('Language') built on Mar 24 2010 14:59:24
Writing library             : libebml v0.8.0 + libmatroska v0.9.0

Video
ID                          : 1
Format                      : AVC
Format/Info                 : Advanced Video Codec
Format profile              : High@L3
Format settings, CABAC      : Yes
Format settings, ReFrames   : 4 frames
Codec ID                    : V_MPEG4/ISO/AVC
Duration                    : 1h 36mn
Width                       : 720 pixels
Height                      : 480 pixels
Display aspect ratio        : 16:9
Frame rate mode             : Constant
Frame rate                  : 23.976 fps
Color space                 : YUV
Chroma subsampling          : 4:2:0
Bit depth                   : 8 bits
Scan type                   : Progressive
Writing library             : x264 core 92 r1510 33d382a
Default                     : Yes
Forced                      : No

Audio
ID                          : 2
Format                      : AAC
Format/Info                 : Advanced Audio Codec
Format profile              : HE-AAC / LC
Codec ID                    : A_AAC
Duration                    : 1h 36mn
Channel(s)                  : 2 channels
Channel positions           : Front: L R
Sampling rate               : 48.0 KHz / 24.0 KHz
Compression mode            : Lossy
Default                     : Yes
Forced                      : No






EkranGrntleri.png
gg1_zpsefzcplpb.jpg
gg2_zpszjkoocz5.jpg
gg3_zps9r0xj0u3.jpg
gg4_zpsvxlvqlfv.jpg
gg5_zpsmzbhg60i.jpg





Bilgi.png
720p

Kod:
General
Complete name               : Movie 11 - Giratina and the Sky Warrior.mkv
Format                      : Matroska
Format version              : Version 2
File size                   : 1.29 GiB
Duration                    : 1h 36mn
Overall bit rate            : 1 923 Kbps
Encoded date                : UTC 2015-10-08 12:22:34
Writing application         : mkvmerge v3.3.0 ('Language') built on Mar 24 2010 14:59:24
Writing library             : libebml v0.8.0 + libmatroska v0.9.0

Video
ID                          : 1
Format                      : AVC
Format/Info                 : Advanced Video Codec
Format profile              : High@L3.1
Format settings, CABAC      : Yes
Format settings, ReFrames   : 4 frames
Codec ID                    : V_MPEG4/ISO/AVC
Duration                    : 1h 36mn
Bit rate                    : 1 692 Kbps
Width                       : 1 280 pixels
Height                      : 720 pixels
Display aspect ratio        : 16:9
Frame rate mode             : Constant
Frame rate                  : 23.976 fps
Color space                 : YUV
Chroma subsampling          : 4:2:0
Bit depth                   : 8 bits
Scan type                   : Progressive
Bits/(Pixel*Frame)          : 0.077
Stream size                 : 1.14 GiB (88%)
Writing library             : x264 core 92 r1510 33d382a
Default                     : Yes
Forced                      : No

Audio
ID                          : 2
Format                      : AC-3
Format/Info                 : Audio Coding 3
Mode extension              : CM (complete main)
Format settings, Endianness : Big
Codec ID                    : A_AC3
Duration                    : 1h 36mn
Bit rate mode               : Constant
Bit rate                    : 192 Kbps
Channel(s)                  : 2 channels
Channel positions           : Front: L R
Sampling rate               : 48.0 KHz
Compression mode            : Lossy
Stream size                 : 132 MiB (10%)
Default                     : Yes
Forced                      : No






EkranGrntleri.png
g1_zpsdqjy3bmd.jpg
g2_zpskpj0nigx.jpg
g3_zpsjsccnft9.jpg
g4_zpsulb8vqgd.jpg
g5_zpsdl3sqbbb.jpg





download.png
480p
Linkleri görebilmek için, lütfen buraya tıklayarak kayıt olun.





720p
Linkleri görebilmek için, lütfen buraya tıklayarak kayıt olun.





Sıkça Sorulan Sorular ve Cevapları !!!!

Soru: Turbobitten Nasıl İndirme Yaparım?
Cevap: Linkleri görebilmek için, lütfen buraya tıklayarak kayıt olun. Tıklayıp Videolu Anlatımımızdan Faydalanabilirsiniz.
Soru: Neden Turbobit? Alternatif Link Eklenecek mi?
Cevap: Şuan Güvenebileceğimiz Kazanç Sağlayan Tek Upload Sitesi Konumundadır. İndirilmeyen Dosya Ömrü 45 Gündür. Daha Önce Sunduğumuz Tüm Alternatif Linkler İndirilmeyip Kırılmıştır.
Soru: Nasıl Hızlı İndirme Yapabilirim?
Cevap: Turbobitten Operatör Hattınızla veya Diğer Ödeme Yollarıyla Premium Satın Alarak Hızlı ve Sınırsız İndirme Yapabilirsiniz. Nasıl Premium Hesap Satın Alacağınız Turbobit Sitesinde Anlatılmıştır.
Soru: İndirdiğim Dosya Rar dan Çıkmıyor, Hata Veriyor?
Cevap: İndirme Yaparken Bağlantıda Sorunlar Olabilir. İndirdiğiniz Dosya Boyutunu Linkteki Dosya Boyutu İle Karşılaştırıp Dosya Boyutlarının Aynı Olup Olmadığından Emin Olunuz.
Soru: Altyazılar Gömülü Olarak Verilmiş. Altyazıları Ayrı Olarak Paylaşacak Mısınız?
Cevap: Hayır, Böyle Bir Şey Kesinlikle Söz Konusu Olamaz.
Soru: Torrent Linki Yok mu?
Cevap: Hayır, Torrent Linki Yapamayız, Çünkü Kimse Seed Etmez. Bölümleri İndiren Torrentten Çıkar Gider. Bazı Türk Torrent Sitelerinde Torrent Mevcuttur Ama Onlarda da Seed Bulamayacağınız İçin Hayal Kırıklığına Uğrayabilirsiniz.
Soru: Bazı Bölümlerde Ses Gelmiyor? Bölüm Açılmıyor?
Cevap: Kodek Paketinizi Güncelleyerek KM Player, VLC Player İle Sorunsuz İzleyebilirsiniz.
Soru: Yasal Uyarı Nedir? Neden 24 Saat Sonra Silmeliyim?
Cevap: Sitemiz, Hukuka, Yasalara, Telif Haklarına Saygılı Olmayı Amaç Edinmiştir. Sitemiz, 5651 Sayılı Yasada Tanımlanan “Yer Sağlayıcı” Olarak Hizmet Vermektedir. İlgili Yasaya Göre, Site Yönetiminin Hukuka Aykırı İçerikleri Kontrol Etme Yükümlülüğü Yoktur. Bu Sebeple, Sitemiz “Uyar ve Kaldır” Prensibini Benimsemiştir. Telif Hakkına Konu Olan Eserlerin Yasal Olmayan Bir Biçimde Paylaşıldığını ve Yasal Haklarının Çiğnendiğini Düşünen Hak Sahipleri, Mail Adresinden Bize Ulaşabilirler. Buraya Ulaşan Talep ve Şikayetler Yerinde Görüldüğü Takdirde İhlal Olduğu Düşünülen İçerikler Sitemizden Kaldırılacaktır.






YasalUyar.png

Bu sitede sunulan Pokémon bölümleri, mp3leri vb materyaller tanıtım amaçlıdır. 24 saat içinde kullanıcılar tarafından silinmelidir. Silinmeyen materyaller için sitemiz yetkilileri sorumlu tutulamaz. PokemonTurkiye.Com bir fan sitesidir ve resmi hiçbir bağı yoktur. Yapımcıların rahatsız olduğu içerik, şikayet dahilinde sitemizden kaldırılır.






Pokémon Türkiye Farkıyla





RE: 11 - Giratina and the Sky Warrior | Türkçe Altyazı | DVDRip | MKV - Mehmet © - 08-10-2015

Türkçe altyazılı sürüm eklenmiştir. emeği geçen arkadaşlara çok teşekkürler.


RE: 11 - Giratina and the Sky Warrior | Türkçe Altyazı | DVDRip | MKV - bulldogss_eray - 06-09-2016

480p Linki güncellenmiştir.
İki Linkte aktiftir, iyi seyirler.


RE: 11 - Giratina and the Sky Warrior | Türkçe Altyazı | DVDRip | MKV - xkaix - 27-11-2016

Hocam iki linkte ölmüş malesef :(